搜索
热搜: 活动 交友 discuz
查看: 12208|回复: 3

【公演视频】20170326 Team SIII 《心的旅程》 E19

[复制链接]

23

主题

39

帖子

257

积分

中级会员

Rank: 3Rank: 3

积分
257
发表于 2017-3-30 05:06:30 | 显示全部楼层 |阅读模式
SHY48 Team SIII 剧场公演《心的旅程》E19 [2017-03-26 18:32]

[直播源码 / 未重编码 / MP4封装 / 1920x1080 25p]
(视频源:[B]=B站直播;[D]=斗鱼直播;[S]=官网直播)

General
Complete name                            : SHY48 Team SIII 剧场公演《心的旅程》E19 [2017-03-26 18.32][3m1080p25][D].mp4
Format                                   : MPEG-4
Format profile                           : Base Media
Codec ID                                 : isom
File size                                : 3.60 GiB
Duration                                 : 2h 44mn
Overall bit rate mode                    : Variable
Overall bit rate                         : 3 132 Kbps
Writing application                      : Lavf54.61.104

Video
ID                                       : 1
Format                                   : AVC
Format/Info                              : Advanced Video Codec
Format profile                           : Main@L4
Format settings, CABAC                   : Yes
Format settings, ReFrames                : 2 frames
Codec ID                                 : avc1
Codec ID/Info                            : Advanced Video Coding
Duration                                 : 2h 44mn
Bit rate mode                            : Constant
Bit rate                                 : 3 000 Kbps
Width                                    : 1 920 pixels
Height                                   : 1 080 pixels
Display aspect ratio                     : 16:9
Frame rate mode                          : Constant
Frame rate                               : 25.000 fps
Color space                              : YUV
Chroma subsampling                       : 4:2:0
Bit depth                                : 8 bits
Scan type                                : Progressive
Bits/(Pixel*Frame)                       : 0.058
Stream size                              : 3.45 GiB (96%)

Audio
ID                                       : 2
Format                                   : AAC
Format/Info                              : Advanced Audio Codec
Format profile                           : LC
Codec ID                                 : 40
Duration                                 : 2h 44mn
Bit rate mode                            : Variable
Bit rate                                 : 126 Kbps
Maximum bit rate                         : 131 Kbps
Channel(s)                               : 2 channels
Channel positions                        : Front: L R
Sampling rate                            : 44.1 KHz
Compression mode                         : Lossy
Stream size                              : 148 MiB (4%)

回复

使用道具 举报

23

主题

39

帖子

257

积分

中级会员

Rank: 3Rank: 3

积分
257
 楼主| 发表于 2017-3-30 05:06:54 | 显示全部楼层
本场直播信号稳定,视频完整无缺损。
回复 支持 反对

使用道具 举报

0

主题

25

帖子

305

积分

中级会员

Rank: 3Rank: 3

积分
305
发表于 2017-3-30 11:09:15 | 显示全部楼层
多谢分享了~
回复 支持 反对

使用道具 举报

0

主题

1

帖子

3

积分

新手上路

Rank: 1

积分
3
发表于 2017-10-25 17:14:26 | 显示全部楼层
为什么链接都没有了呢?
回复 支持 反对

使用道具 举报

您需要登录后才可以回帖 登录 | 立即注册

本版积分规则

Archiver|手机版|小黑屋|SHY48官方粉丝俱乐部  

GMT+8, 2018-4-24 20:34 , Processed in 0.030975 second(s), 13 queries , Apc On.

Powered by Discuz! X3.2

© 2001-2013 Comsenz Inc.

快速回复 返回顶部 返回列表