搜索
热搜: 活动 交友 discuz
查看: 7763|回复: 4

【公演视频】20170225 Team SIII 《心的旅程》 E10

[复制链接]

23

主题

39

帖子

257

积分

中级会员

Rank: 3Rank: 3

积分
257
发表于 2017-2-26 12:56:26 | 显示全部楼层 |阅读模式
SHY48 Team SIII 剧场公演《心的旅程》E10 [2017-02-25 14:02]







[直播源码 / 未重编码 / MP4封装 / 1920x1080 25p]
(视频源:[B]=B站直播;[D]=斗鱼直播;[S]=官网直播)

General
Complete name                            : SHY48 Team SIII 剧场公演《心的旅程》E10 [2017-02-25 14.02][3m1080p25][D].mp4
Format                                   : MPEG-4
Format profile                           : Base Media
Codec ID                                 : isom
File size                                : 3.40 GiB
Duration                                 : 2h 35mn
Overall bit rate mode                    : Variable
Overall bit rate                         : 3 132 Kbps
Writing application                      : Lavf54.61.104

Video
ID                                       : 1
Format                                   : AVC
Format/Info                              : Advanced Video Codec
Format profile                           : Main@L4
Format settings, CABAC                   : Yes
Format settings, ReFrames                : 2 frames
Codec ID                                 : avc1
Codec ID/Info                            : Advanced Video Coding
Duration                                 : 2h 35mn
Bit rate mode                            : Constant
Bit rate                                 : 3 000 Kbps
Width                                    : 1 920 pixels
Height                                   : 1 080 pixels
Display aspect ratio                     : 16:9
Frame rate mode                          : Variable
Frame rate                               : 25.000 fps
Minimum frame rate                       : 25.000 fps
Maximum frame rate                       : 58.824 fps
Color space                              : YUV
Chroma subsampling                       : 4:2:0
Bit depth                                : 8 bits
Scan type                                : Progressive
Bits/(Pixel*Frame)                       : 0.058
Stream size                              : 3.26 GiB (96%)

Audio
ID                                       : 2
Format                                   : AAC
Format/Info                              : Advanced Audio Codec
Format profile                           : LC
Codec ID                                 : 40
Duration                                 : 2h 35mn
Bit rate mode                            : Variable
Bit rate                                 : 126 Kbps
Maximum bit rate                         : 131 Kbps
Channel(s)                               : 2 channels
Channel positions                        : Front: L R
Sampling rate                            : 44.1 KHz
Compression mode                         : Lossy
Stream size                              : 140 MiB (4%)


回复

使用道具 举报

23

主题

39

帖子

257

积分

中级会员

Rank: 3Rank: 3

积分
257
 楼主| 发表于 2017-2-26 12:57:46 | 显示全部楼层
1:58:55画面重复数秒。
回复 支持 反对

使用道具 举报

0

主题

25

帖子

261

积分

中级会员

Rank: 3Rank: 3

积分
261
发表于 2017-2-27 00:26:32 | 显示全部楼层
多谢分享了~
回复 支持 反对

使用道具 举报

0

主题

2

帖子

16

积分

新手上路

Rank: 1

积分
16
发表于 2017-2-27 19:25:48 | 显示全部楼层
感谢分享
回复

使用道具 举报

0

主题

1

帖子

1

积分

新手上路

Rank: 1

积分
1
发表于 2017-11-13 19:12:20 | 显示全部楼层
只有我不知道下载地址在哪么。。
回复 支持 反对

使用道具 举报

您需要登录后才可以回帖 登录 | 立即注册

本版积分规则

Archiver|手机版|小黑屋|SHY48官方粉丝俱乐部  

GMT+8, 2018-1-20 18:54 , Processed in 0.035161 second(s), 6 queries , Apc On.

Powered by Discuz! X3.2

© 2001-2013 Comsenz Inc.

快速回复 返回顶部 返回列表