搜索
热搜: 活动 交友 discuz
查看: 8792|回复: 5

【公演视频】20170211 Team SIII 《心的旅程》 E06 情人节1

[复制链接]

23

主题

39

帖子

257

积分

中级会员

Rank: 3Rank: 3

积分
257
发表于 2017-2-12 05:08:06 | 显示全部楼层 |阅读模式
SHY48 Team SIII 剧场公演《心的旅程》E06 「因为喜欢你」情人节特别公演(第一场)
[2017-02-11 19.02]









[直播源码 / 未重编码 / MP4封装 / 1920x1080 25p]
(视频源:[B]=B站直播;[D]=斗鱼直播;[S]=官网直播)

General
Complete name                            : SHY48 Team SIII 剧场公演《心的旅程》E06「因为喜欢你」情人节特别公演 [2017-02-11 19.02][3m1080p25][D].mp4
Format                                   : MPEG-4
Format profile                           : Base Media
Codec ID                                 : isom
File size                                : 3.60 GiB
Duration                                 : 2h 44mn
Overall bit rate mode                    : Variable
Overall bit rate                         : 3 132 Kbps
Writing application                      : Lavf57.18.100

Video
ID                                       : 1
Format                                   : AVC
Format/Info                              : Advanced Video Codec
Format profile                           : Main@L4
Format settings, CABAC                   : Yes
Format settings, ReFrames                : 2 frames
Format settings, GOP                     : M=3, N=90
Codec ID                                 : avc1
Codec ID/Info                            : Advanced Video Coding
Duration                                 : 2h 44mn
Bit rate mode                            : Constant
Bit rate                                 : 3 000 Kbps
Width                                    : 1 920 pixels
Height                                   : 1 080 pixels
Display aspect ratio                     : 16:9
Frame rate mode                          : Constant
Frame rate                               : 25.000 fps
Color space                              : YUV
Chroma subsampling                       : 4:2:0
Bit depth                                : 8 bits
Scan type                                : Progressive
Bits/(Pixel*Frame)                       : 0.058
Stream size                              : 3.45 GiB (96%)

Audio
ID                                       : 2
Format                                   : AAC
Format/Info                              : Advanced Audio Codec
Format profile                           : LC
Codec ID                                 : 40
Duration                                 : 2h 44mn
Bit rate mode                            : Variable
Bit rate                                 : 126 Kbps
Maximum bit rate                         : 133 Kbps
Channel(s)                               : 2 channels
Channel positions                        : Front: L R
Sampling rate                            : 44.1 KHz
Compression mode                         : Lossy
Stream size                              : 148 MiB (4%)



特别节目部分


回复

使用道具 举报

0

主题

25

帖子

365

积分

中级会员

Rank: 3Rank: 3

积分
365
发表于 2017-2-12 08:04:12 | 显示全部楼层
多谢分享了~
回复 支持 反对

使用道具 举报

0

主题

2

帖子

6

积分

新手上路

Rank: 1

积分
6
发表于 2017-2-12 15:05:10 | 显示全部楼层
感谢分享
回复

使用道具 举报

0

主题

8

帖子

12

积分

新手上路

Rank: 1

积分
12
发表于 2017-6-1 14:14:43 | 显示全部楼层
谢谢楼主的分享
回复 支持 反对

使用道具 举报

0

主题

1

帖子

1

积分

新手上路

Rank: 1

积分
1
发表于 2018-4-13 18:44:58 | 显示全部楼层
怎么没有连接
回复 支持 反对

使用道具 举报

0

主题

2

帖子

4

积分

新手上路

Rank: 1

积分
4
发表于 2018-5-26 12:02:07 | 显示全部楼层
感谢分享
回复

使用道具 举报

您需要登录后才可以回帖 登录 | 立即注册

本版积分规则

Archiver|手机版|小黑屋|SHY48官方粉丝俱乐部  

GMT+8, 2018-9-25 08:15 , Processed in 0.033131 second(s), 6 queries , Apc On.

Powered by Discuz! X3.2

© 2001-2013 Comsenz Inc.

快速回复 返回顶部 返回列表