搜索
热搜: 活动 交友 discuz
查看: 1997|回复: 3

【公演视频】20170114 Team SIII 《心的旅程》 E02

[复制链接]

23

主题

39

帖子

257

积分

中级会员

Rank: 3Rank: 3

积分
257
发表于 2017-1-21 04:05:39 | 显示全部楼层 |阅读模式
SHY48 Team SIII 剧场公演《心的旅程》E02 [2017-01-14 18:30]







[直播源码 / 未重编码 / MP4封装 / 1920x1080 25p]
(视频源:[B]=B站;[D]=斗鱼;[P]=口袋48)

General
Complete name                            : SHY48 Team SIII 剧场公演《心的旅程》E02 [2017-01-14 18.30][3m1080p25][D].mp4
Format                                   : MPEG-4
Format profile                           : Base Media
Codec ID                                 : isom
File size                                : 3.24 GiB
Duration                                 : 2h 29mn
Overall bit rate mode                    : Variable
Overall bit rate                         : 3 099 Kbps
Writing application                      : Lavf54.61.104

Video
ID                                       : 1
Format                                   : AVC
Format/Info                              : Advanced Video Codec
Format profile                           : Main@L4
Format settings, CABAC                   : Yes
Format settings, ReFrames                : 2 frames
Format settings, GOP                     : M=3, N=90
Codec ID                                 : avc1
Codec ID/Info                            : Advanced Video Coding
Duration                                 : 2h 29mn
Bit rate mode                            : Constant
Bit rate                                 : 3 000 Kbps
Width                                    : 1 920 pixels
Height                                   : 1 080 pixels
Display aspect ratio                     : 16:9
Frame rate mode                          : Constant
Frame rate                               : 25.000 fps
Color space                              : YUV
Chroma subsampling                       : 4:2:0
Bit depth                                : 8 bits
Scan type                                : Progressive
Bits/(Pixel*Frame)                       : 0.058
Stream size                              : 3.14 GiB (97%)

Audio
ID                                       : 2
Format                                   : AAC
Format/Info                              : Advanced Audio Codec
Format profile                           : LC
Codec ID                                 : 40
Duration                                 : 2h 29mn
Bit rate mode                            : Variable
Bit rate                                 : 93.4 Kbps
Maximum bit rate                         : 98.3 Kbps
Channel(s)                               : 2 channels
Channel positions                        : Front: L R
Sampling rate                            : 48.0 KHz
Compression mode                         : Lossy
Stream size                              : 100.0 MiB (3%)


回复

使用道具 举报

0

主题

25

帖子

375

积分

中级会员

Rank: 3Rank: 3

积分
375
发表于 2017-1-21 21:35:39 | 显示全部楼层
多谢分享了~
回复 支持 反对

使用道具 举报

0

主题

8

帖子

12

积分

新手上路

Rank: 1

积分
12
发表于 2017-6-16 20:19:10 | 显示全部楼层
谢谢楼主的分享
回复 支持 反对

使用道具 举报

0

主题

1

帖子

3

积分

新手上路

Rank: 1

积分
3
发表于 2018-2-14 02:00:13 | 显示全部楼层
谢谢分享
回复

使用道具 举报

您需要登录后才可以回帖 登录 | 立即注册

本版积分规则

Archiver|手机版|小黑屋|SHY48官方粉丝俱乐部  

GMT+8, 2018-10-23 06:03 , Processed in 0.035701 second(s), 7 queries , Apc On.

Powered by Discuz! X3.2

© 2001-2013 Comsenz Inc.

快速回复 返回顶部 返回列表