搜索
热搜: 活动 交友 discuz
查看: 13076|回复: 7

【演唱会视频】20170107 SNH48 第三届年度金曲大赏 BEST50

[复制链接]

23

主题

39

帖子

257

积分

中级会员

Rank: 3Rank: 3

积分
257
发表于 2017-1-8 13:34:43 | 显示全部楼层 |阅读模式
SNH48 第三届年度金曲大赏 REQUEST TIME BEST50 演唱会 [2017-01-07 17:00]

[直播源码 / 未重编码 / MP4封装 / 1920x1080 25p]
(视频源:[B]=B站;[D]=斗鱼;[P]=口袋48;[Q]=腾讯)

General
Complete name                            : SNH48 第三届年度金曲大赏 REQUEST TIME BEST50 演唱会 [2017-01-07][5m1080p25][Q].mp4
Format                                   : MPEG-4
Format profile                           : Base Media
Codec ID                                 : isom
File size                                : 9.32 GiB
Duration                                 : 4h 20mn
Overall bit rate mode                    : Variable
Overall bit rate                         : 5 131 Kbps
Writing application                      : Lavf55.30.100

Video
ID                                       : 1
Format                                   : AVC
Format/Info                              : Advanced Video Codec
Format profile                           : High@L4
Format settings, CABAC                   : Yes
Format settings, ReFrames                : 2 frames
Codec ID                                 : avc1
Codec ID/Info                            : Advanced Video Coding
Duration                                 : 4h 20mn
Bit rate mode                            : Constant
Bit rate                                 : 5 000 Kbps
Width                                    : 1 920 pixels
Height                                   : 1 080 pixels
Display aspect ratio                     : 16:9
Frame rate mode                          : Variable
Frame rate                               : 25.000 fps
Minimum frame rate                       : 1.389 fps
Maximum frame rate                       : 25.000 fps
Color space                              : YUV
Chroma subsampling                       : 4:2:0
Bit depth                                : 8 bits
Scan type                                : Progressive
Bits/(Pixel*Frame)                       : 0.096
Stream size                              : 9.08 GiB (97%)

Audio
ID                                       : 2
Format                                   : AAC
Format/Info                              : Advanced Audio Codec
Format profile                           : LC
Codec ID                                 : 40
Duration                                 : 4h 20mn
Bit rate mode                            : Variable
Bit rate                                 : 126 Kbps
Maximum bit rate                         : 131 Kbps
Channel(s)                               : 2 channels
Channel positions                        : Front: L R
Sampling rate                            : 44.1 KHz
Compression mode                         : Lossy
Stream size                              : 233 MiB (2%)



回复

使用道具 举报

0

主题

1

帖子

65

积分

注册会员

Rank: 2

积分
65
发表于 2017-1-9 07:04:57 | 显示全部楼层
shy资源共享区第一个沙发!
回复 支持 反对

使用道具 举报

0

主题

25

帖子

387

积分

中级会员

Rank: 3Rank: 3

积分
387
发表于 2017-1-21 21:36:35 | 显示全部楼层
多谢分享了~
回复 支持 反对

使用道具 举报

0

主题

2

帖子

4

积分

新手上路

Rank: 1

积分
4
发表于 2017-1-26 00:21:13 | 显示全部楼层
多谢分享
回复

使用道具 举报

主题

帖子

0

积分

管理员

Rank: 9Rank: 9Rank: 9

积分
0
发表于 2017-1-31 22:27:16 | 显示全部楼层
回复

使用道具 举报

1

主题

4

帖子

8

积分

新手上路

Rank: 1

积分
8
发表于 2017-1-31 22:27:57 | 显示全部楼层
谢谢分享啦
回复 支持 反对

使用道具 举报

0

主题

3

帖子

9

积分

新手上路

Rank: 1

积分
9
发表于 2017-5-14 01:20:41 | 显示全部楼层
感谢楼主分享,有cut就更好了。
回复 支持 反对

使用道具 举报

0

主题

2

帖子

262

积分

中级会员

Rank: 3Rank: 3

积分
262
发表于 2019-1-17 18:58:03 | 显示全部楼层
多谢分享
天蝎座的aoyoutian
回复

使用道具 举报

您需要登录后才可以回帖 登录 | 立即注册

本版积分规则

Archiver|手机版|小黑屋|SHY48官方粉丝俱乐部  

GMT+8, 2019-2-22 13:12 , Processed in 0.039639 second(s), 11 queries , Apc On.

Powered by Discuz! X3.2

© 2001-2013 Comsenz Inc.

快速回复 返回顶部 返回列表